Search This Blog

04 April 2012

Barcelona - Milan Full Match HD TVE 03.04.2012

DOWNLOAD LINK - HERE


 If you dont have account, use this one :


 Username: FCBarcelona2


 Password: !!FCB123


iNfO:



Format : MPEG-4
      Format profile : Base Media
      Codec ID : isom
      File size : 2.96 GiB
      Duration : 110mn 11s
      Overall bit rate mode : Variable
      Overall bit rate : 7 669 Kbps
      Encoded date : UTC 2012-04-03 20:50:17
      Tagged date : UTC 2012-04-03 20:50:17
      Writing application : Lavf51.12.1
   Video #1
      ID : 1
      Format : AVC
      Format/Info : Advanced Video Codec
      Format profile : Baseline@L3.1
      Format settings, CABAC : No
      Format settings, ReFrames : 1 frame
      Format settings, GOP : M=1, N=12
      Codec ID : avc1
      Codec ID/Info : Advanced Video Coding
      Duration : 55mn 11s
      Bit rate mode : Variable
      Bit rate : 7 513 Kbps
      Maximum bit rate : 9 000 Kbps
      Width : 1 280 pixels
      Height : 720 pixels
      Display aspect ratio : 16:9
      Frame rate mode : Constant
      Frame rate : 30.000 fps
      Original frame rate : 24.000 fps
      Color space : YUV
      Chroma subsampling : 4:2:0
      Bit depth : 8 bits
      Scan type : Progressive
      Bits/(Pixel*Frame) : 0.272
      Stream size : 2.90 GiB (98%)
      Encoded date : UTC 2012-04-03 20:50:17
      Tagged date : UTC 2012-04-03 20:50:17
   Audio #2
      ID : 2
      Format : AAC
      Format/Info : Advanced Audio Codec
      Format profile : LC
      Codec ID : 40
      Duration : 55mn 11s
      Bit rate mode : Variable
      Bit rate : 152 Kbps
      Channel(s) : 2 channels
      Channel positions : Front: L R
      Sampling rate : 44.1 KHz
      Compression mode : Lossy
      Stream size : 60.0 MiB (2%)
      Encoded date : UTC 2012-04-03 20:50:17
      Tagged date : UTC 2012-04-03 20:50:17

6 comments:

  1. juz post some stream video my friend, i dont know how to download or watch torrent files

    FCB fan from Laos

    ReplyDelete
  2. superb mister highdef:) arigato sensei

    ReplyDelete
    Replies
    1. como abriste el archivo?

      Delete
  3. nose como se abre el archivo

    ReplyDelete