Search This Blog

18 November 2012

Barcelona - Zaragosa Full Match Canal + HD 17.11.2012

DOWNLOAD LINK -  HERE

If you don't have account use this one:

Username: FCBarcelona2

Password: !!FCB123

Enjoy :)


 Format : MPEG-TS
      File size : 712 MiB
      Duration : 52mn 14s
      Overall bit rate mode : Variable
      Overall bit rate : 1 906 Kbps
   Video #69
      ID : 69 (0x45)
      Menu ID : 1 (0x1)
      Format : AVC
      Format/Info : Advanced Video Codec
      Format profile : High@L5.1
      Format settings, CABAC : No
      Format settings, ReFrames : 4 frames
      Codec ID : 27
      Duration : 52mn 13s
      Bit rate : 1 711 Kbps
      Width : 1 280 pixels
      Height : 720 pixels
      Display aspect ratio : 16:9
      Frame rate : 25.000 fps
      Color space : YUV
      Chroma subsampling : 4:2:0
      Bit depth : 8 bits
      Scan type : Progressive
      Bits/(Pixel*Frame) : 0.074
      Stream size : 641 MiB (90%)
      Writing library : x264 core 112 r1834 a51816a
      Encoding settings : cabac=0 / ref=3 / deblock=1:0:0 / analyse=0x3:0x13 / me=hex / subme=7 / psy=1 / psy_rd=1.00:0.00 / mixed_ref=1 / me_range=16 / chroma_me=1 / trellis=0 / 8x8dct=1 / cqm=0 / deadzone=21,11 / fast_pskip=1 / chroma_qp_offset=-2 / threads=12 / sliced_threads=0 / nr=40 / decimate=1 / interlaced=0 / constrained_intra=0 / bframes=3 / b_pyramid=2 / b_adapt=1 / b_bias=0 / direct=1 / weightb=1 / open_gop=0 / weightp=2 / keyint=250 / keyint_min=25 / scenecut=40 / intra_refresh=0 / rc_lookahead=40 / rc=cbr / mbtree=1 / bitrate=1711 / ratetol=1.0 / qcomp=0.60 / qpmin=10 / qpmax=51 / qpstep=4 / vbv_maxrate=1711 / vbv_bufsize=17100 / ip_ratio=2.00 / aq=1:1.00 / nal_hrd=none
   Audio #68
      ID : 68 (0x44)
      Menu ID : 1 (0x1)
      Format : MPEG Audio
      Format version : Version 1
      Format profile : Layer 3
      Mode : Joint stereo
      Mode extension : MS Stereo
      Codec ID : 3
      Duration : 52mn 14s
      Bit rate mode : Constant
      Bit rate : 96.0 Kbps
      Channel(s) : 2 channels
      Sampling rate : 44.1 KHz
      Compression mode : Lossy
      Delay relative to video : -56ms
      Stream size : 35.9 MiB (5%)

1 comment:

  1. Thanks a lot for this man, you're fucking awesome!

    ReplyDelete